<?xml version="1.0" standalone="no"?>
<!DOCTYPE svg PUBLIC "-//W3C//DTD SVG 1.1//EN" "http://www.w3.org/Graphics/SVG/1.1/DTD/svg11.dtd" >
<svg xmlns="http://www.w3.org/2000/svg">
<metadata></metadata>
<defs>
<font id="arimobold" horiz-adv-x="1139" >
<font-face units-per-em="2048" ascent="1638" descent="-410" />
<missing-glyph horiz-adv-x="569" />
<glyph horiz-adv-x="0" />
<glyph unicode="&#xd;" horiz-adv-x="569" />
<glyph unicode=" "  horiz-adv-x="569" />
<glyph unicode="&#x09;" horiz-adv-x="569" />
<glyph unicode="&#xa0;" horiz-adv-x="569" />
<glyph unicode="!" horiz-adv-x="682" d="M193 0v270h288v-270h-288zM193 1409h294l-32 -983h-230z" />
<glyph unicode="&#x22;" horiz-adv-x="971" d="M135 1409h273l-27 -511h-219zM561 1409h275l-29 -511h-219z" />
<glyph unicode="#" d="M35 381v149h188l70 332h-207v148h238l84 385h153l-82 -385h307l84 385h156l-84 -385h164v-148h-197l-69 -332h215v-149h-246l-82 -381h-156l80 381h-307l-80 -381h-153l79 381h-155zM377 530h309l70 332h-307z" />
<glyph unicode="$" d="M27 408l256 47q19 -113 75.5 -165.5t161.5 -62.5v391q-3 2 -15 4.5t-16 2.5q-162 37 -244.5 87.5t-127.5 128t-45 189.5q0 166 114.5 257t333.5 99v134h109v-134q131 -5 218.5 -41.5t141 -107t86.5 -201.5l-264 -39q-15 87 -58.5 134.5t-123.5 58.5v-352l11 -2 q29 0 176.5 -48t220.5 -141.5t73 -234.5q0 -181 -121.5 -280.5t-359.5 -108.5v-175h-109v172q-215 8 -335 101.5t-158 286.5zM334 1034q0 -44 15.5 -73t45 -48t125.5 -51v332q-186 -14 -186 -160zM629 227q221 15 221 181q0 50 -18 81.5t-52.5 51.5t-150.5 53v-367z" />
<glyph unicode="%" horiz-adv-x="1821" d="M51 977q0 227 86 337.5t271 110.5q179 0 265.5 -113t86.5 -335q0 -218 -90.5 -333.5t-266.5 -115.5q-174 0 -263 114.5t-89 334.5zM266 977q0 -158 32.5 -225.5t107.5 -67.5q74 0 105.5 68t31.5 225t-30.5 225t-104.5 68q-80 0 -111 -67.5t-31 -225.5zM346 0l920 1409 h209l-923 -1409h-206zM1059 432q0 224 86 336.5t272 112.5q180 0 265 -113.5t85 -335.5q0 -218 -90 -333t-264 -115q-176 0 -265 114t-89 334zM1276 432q0 -160 32 -225.5t107 -65.5q73 0 105 68t32 223q0 159 -30.5 227t-104.5 68q-80 0 -110.5 -69t-30.5 -226z" />
<glyph unicode="&#x26;" horiz-adv-x="1479" d="M90 385q0 135 81 240.5t257 187.5q-74 150 -74 279q0 156 98 240.5t279 84.5q168 0 265.5 -80t97.5 -217q0 -77 -39 -139t-110.5 -115t-242.5 -133q99 -175 244 -336q104 158 158 363l209 -70q-68 -233 -193 -420q86 -73 178 -73q65 0 117 16v-203q-55 -22 -131 -22 q-86 0 -172.5 31t-157.5 90q-170 -129 -379 -129q-231 0 -358 106.5t-127 298.5zM344 389q0 -99 65 -159t177 -60q65 0 117.5 24t84.5 52q-166 185 -272 377q-172 -81 -172 -234zM571 1090q0 -87 54 -193q105 45 150.5 76t70 66t24.5 79q0 57 -38 93t-103 36 q-77 0 -117.5 -43t-40.5 -114z" />
<glyph unicode="'" horiz-adv-x="487" d="M109 1409h272l-27 -511h-219z" />
<glyph unicode="(" horiz-adv-x="682" d="M102 531q0 279 70 503.5t227 449.5h281q-158 -228 -229.5 -454t-71.5 -500q0 -273 71 -497.5t230 -457.5h-281q-157 226 -227 451t-70 505z" />
<glyph unicode=")" horiz-adv-x="682" d="M2 -425q160 234 230.5 457.5t70.5 497.5q0 275 -72 501.5t-229 452.5h281q158 -227 227.5 -452t69.5 -501q0 -278 -69.5 -503t-227.5 -453h-281z" />
<glyph unicode="*" horiz-adv-x="797" d="M6 1042l68 197l239 -104l-18 274h215l-18 -274l235 104l68 -197l-250 -61l186 -213l-184 -121l-146 252l-149 -252l-186 123l190 211z" />
<glyph unicode="+" horiz-adv-x="1196" d="M86 569v224h399v408h226v-408h402v-224h-402v-408h-226v408h-399z" />
<glyph unicode="," horiz-adv-x="569" d="M139 -317q59 71 96 156t37 161h-129v305h289v-239q0 -120 -25.5 -212t-82.5 -171h-185z" />
<glyph unicode="-" horiz-adv-x="682" d="M80 409v244h520v-244h-520z" />
<glyph unicode="." horiz-adv-x="569" d="M139 0v305h289v-305h-289z" />
<glyph unicode="/" horiz-adv-x="569" d="M20 -41l291 1525h238l-286 -1525h-243z" />
<glyph unicode="0" d="M81 705q0 253 53 413t159 236t280 76q250 0 366 -181t116 -544q0 -357 -122.5 -541t-367.5 -184q-484 0 -484 725zM362 705q0 -193 19.5 -301.5t62 -155.5t123.5 -47q80 0 123.5 49.5t63 158.5t19.5 296q0 195 -19 303t-61 155t-122 47q-85 0 -128.5 -47.5t-62 -155 t-18.5 -302.5z" />
<glyph unicode="1" d="M129 0v209h349v961l-338 -211v221l353 229h266v-1200h323v-209h-953z" />
<glyph unicode="2" d="M71 0v195q55 121 156.5 236t255.5 240q148 120 207.5 198t59.5 153q0 184 -185 184q-90 0 -137.5 -48.5t-61.5 -145.5l-283 16q24 196 146.5 299t333.5 103q228 0 350 -104t122 -292q0 -99 -39 -179t-100 -147.5t-135.5 -126.5t-144.5 -115t-127.5 -113t-85.5 -122h654 v-231h-986z" />
<glyph unicode="3" d="M47 383l286 25q27 -203 231 -203q101 0 157 50t56 153q0 94 -68 144t-202 50h-98v227h92q121 0 182 49.5t61 141.5q0 87 -48.5 136.5t-141.5 49.5q-87 0 -140.5 -48t-61.5 -136l-281 20q22 182 151 285t337 103q221 0 345.5 -99.5t124.5 -275.5q0 -132 -77.5 -217 t-223.5 -113v-4q162 -19 249.5 -106.5t87.5 -223.5q0 -198 -130 -306t-370 -108q-227 0 -361 104.5t-157 301.5z" />
<glyph unicode="4" d="M31 287v211l595 911h314v-913h188v-209h-188v-287h-268v287h-641zM260 496h412v461q0 54 3.5 117t5.5 81q-26 -56 -94 -162z" />
<glyph unicode="5" d="M63 352l281 23q22 -90 78 -131t141 -41q105 0 167.5 67t62.5 193q0 111 -59 177.5t-165 66.5q-117 0 -191 -91h-274l49 793h847v-209h-592l-23 -356q102 90 255 90q201 0 321.5 -125t120.5 -340q0 -224 -139.5 -356.5t-382.5 -132.5q-212 0 -339.5 95.5t-157.5 276.5z " />
<glyph unicode="6" d="M75 672q0 377 135.5 567.5t387.5 190.5q179 0 282.5 -79t146.5 -245l-265 -37q-38 139 -170 139q-113 0 -177.5 -113t-64.5 -343q45 75 125 115t181 40q189 0 299 -120t110 -326q0 -225 -126 -353t-348 -128q-249 0 -382.5 174.5t-133.5 517.5zM370 483 q0 -123 58.5 -203.5t153.5 -80.5t148 67.5t53 186.5q0 120 -55.5 183.5t-152.5 63.5q-93 0 -149 -59.5t-56 -157.5z" />
<glyph unicode="7" d="M88 1178v231h961v-223q-95 -150 -179.5 -291t-147.5 -283.5t-99.5 -293t-36.5 -318.5h-293q0 176 46 340.5t133 335t316 502.5h-700z" />
<glyph unicode="8" d="M65 395q0 135 78 227.5t209 114.5v4q-114 25 -184 113t-70 203q0 173 122.5 273t346.5 100q229 0 351.5 -97.5t122.5 -277.5q0 -115 -69.5 -202t-186.5 -110v-4q136 -22 213.5 -111.5t77.5 -230.5q0 -198 -131 -307.5t-374 -109.5q-241 0 -373.5 109t-132.5 306zM354 416 q0 -124 54 -181t165 -57q109 0 160.5 57t51.5 185q0 221 -220 221q-102 0 -156.5 -58t-54.5 -167zM385 1040q0 -202 184 -202q92 0 137.5 47t45.5 155q0 100 -46 146.5t-139 46.5q-182 0 -182 -193z" />
<glyph unicode="9" d="M71 958q0 222 128.5 347t363.5 125q253 0 376.5 -175.5t123.5 -527.5q0 -375 -137 -561t-389 -186q-186 0 -291.5 79.5t-149.5 251.5l264 37q39 -147 180 -147q118 0 181.5 113t65.5 335q-38 -75 -124.5 -117.5t-186.5 -42.5q-186 0 -295.5 126.5t-109.5 342.5zM356 956 q0 -117 53 -187.5t148 -70.5q90 0 149.5 61.5t59.5 164.5q0 131 -57.5 208.5t-152.5 77.5q-93 0 -146.5 -67.5t-53.5 -186.5z" />
<glyph unicode=":" horiz-adv-x="682" d="M197 0v281h288v-281h-288zM197 752v282h288v-282h-288z" />
<glyph unicode=";" horiz-adv-x="682" d="M195 -317q64 81 98.5 163.5t34.5 153.5h-129v281h288v-215q0 -120 -25.5 -212t-82.5 -171h-184zM199 752v282h288v-282h-288z" />
<glyph unicode="&#x3c;" horiz-adv-x="1196" d="M86 516v322l1027 391v-228l-833 -325l833 -324v-227z" />
<glyph unicode="=" horiz-adv-x="1196" d="M85 291v221h1027v-221h-1027zM85 842v223h1027v-223h-1027z" />
<glyph unicode="&#x3e;" horiz-adv-x="1196" d="M86 125v227l832 324l-832 325v228l1027 -391v-322z" />
<glyph unicode="?" horiz-adv-x="1251" d="M94 1001q27 203 167 316t364 113q237 0 372.5 -107.5t135.5 -296.5q0 -97 -43.5 -174t-162.5 -162l-76 -55q-68 -49 -101.5 -99t-36.5 -110h-267q6 102 57.5 182t151.5 150q107 74 151 130.5t44 125.5q0 88 -57.5 139t-163.5 51q-101 0 -169.5 -59t-80.5 -156zM438 0v270 h289v-270h-289z" />
<glyph unicode="@" horiz-adv-x="1997" d="M117 461q0 283 126.5 512t349.5 355t499 126q243 0 421 -90.5t271.5 -255.5t93.5 -383q0 -182 -63.5 -332t-175.5 -234.5t-242 -84.5q-92 0 -141.5 45.5t-49.5 126.5q0 37 6 67h-6q-50 -105 -148.5 -172t-201.5 -67q-157 0 -243.5 101.5t-86.5 283.5q0 163 64.5 306 t179 224.5t256.5 81.5q195 0 264 -174h6l39 152h156l-117 -506q-37 -172 -37 -240q0 -50 23.5 -71t54.5 -21q80 0 153 69.5t115.5 186t42.5 256.5q0 175 -76.5 309.5t-220.5 207.5t-335 73q-240 0 -423 -105t-287.5 -303t-104.5 -444q0 -195 79.5 -342.5t223.5 -223 t338 -75.5q294 0 589 155l62 -122q-168 -95 -328.5 -136t-329.5 -41q-236 0 -415.5 95.5t-280 276t-100.5 413.5zM692 461q0 -114 48.5 -180t148.5 -66q66 0 128.5 42t111.5 121.5t75.5 181t26.5 161.5q0 95 -59.5 155t-153.5 60t-168.5 -62.5t-116 -177t-41.5 -235.5z" />
<glyph unicode="A" horiz-adv-x="1479" d="M51 0l514 1409h348l512 -1409h-292l-125 360h-537l-125 -360h-295zM537 582h405l-139 405l-43 136l-21 69l-6 -22q-10 -36 -24 -82t-172 -506z" />
<glyph unicode="B" horiz-adv-x="1479" d="M137 0v1409h645q258 0 390.5 -89.5t132.5 -264.5q0 -120 -66.5 -202.5t-202.5 -111.5q171 -20 260.5 -107.5t89.5 -231.5q0 -192 -144 -297t-400 -105h-705zM432 219h385q142 0 207.5 51.5t65.5 154.5q0 198 -284 198h-374v-404zM432 841h338q125 0 181.5 43.5 t56.5 130.5q0 95 -60.5 135t-179.5 40h-336v-349z" />
<glyph unicode="C" horiz-adv-x="1479" d="M84 711q0 347 179 533t519 186q248 0 404 -99.5t219 -292.5l-260 -71q-33 106 -129.5 168.5t-227.5 62.5q-200 0 -303.5 -124t-103.5 -363q0 -243 106.5 -371t307.5 -128q267 0 371 268l257 -97q-83 -204 -243.5 -303.5t-384.5 -99.5q-340 0 -525.5 192.5t-185.5 538.5z " />
<glyph unicode="D" horiz-adv-x="1479" d="M137 0v1409h510q356 0 551 -179.5t195 -514.5q0 -218 -85.5 -380.5t-242 -248.5t-358.5 -86h-570zM432 228h250q190 0 302 131t112 356q0 227 -118 346.5t-337 119.5h-209v-953z" />
<glyph unicode="E" horiz-adv-x="1366" d="M137 0v1409h1108v-228h-813v-354h752v-228h-752v-371h854v-228h-1149z" />
<glyph unicode="F" horiz-adv-x="1251" d="M137 0v1409h1039v-228h-744v-436h721v-228h-721v-517h-295z" />
<glyph unicode="G" horiz-adv-x="1593" d="M84 711q0 348 186 533.5t535 185.5q496 0 631 -367l-272 -82q-44 107 -138 162t-221 55q-208 0 -316 -126t-108 -361q0 -239 111.5 -369.5t313.5 -130.5q115 0 223 33.5t167 85.5v195h-344v218h614v-518q-112 -115 -291.5 -180t-376.5 -65q-344 0 -529 190.5t-185 540.5z " />
<glyph unicode="H" horiz-adv-x="1479" d="M137 0v1409h295v-561h614v561h295v-1409h-295v604h-614v-604h-295z" />
<glyph unicode="I" horiz-adv-x="569" d="M137 0v1409h295v-1409h-295z" />
<glyph unicode="J" d="M31 382l293 43q18 -109 67 -161.5t135 -52.5q88 0 133.5 59t45.5 169v739h-281v231h575v-963q0 -220 -125 -343t-350 -123q-219 0 -336.5 95t-156.5 307z" />
<glyph unicode="K" horiz-adv-x="1479" d="M137 0v1409h295v-639l635 639h344l-602 -596l651 -813h-348l-506 647l-174 -133v-514h-295z" />
<glyph unicode="L" horiz-adv-x="1251" d="M137 0v1409h295v-1181h756v-228h-1051z" />
<glyph unicode="M" horiz-adv-x="1706" d="M137 0v1409h395l252 -788l22 -76l48 -189l63 226l259 827h393v-1409h-262v854q0 29 0.5 58t9.5 249q-71 -269 -105 -375l-254 -786h-210l-254 786l-107 375q12 -232 12 -307v-854h-262z" />
<glyph unicode="N" horiz-adv-x="1479" d="M137 0v1409h337l623 -1094q-18 151 -18 275v819h262v-1409h-346l-614 1085q18 -158 18 -254v-831h-262z" />
<glyph unicode="O" horiz-adv-x="1593" d="M84 711q0 339 188 529t523 190t523.5 -192t188.5 -527q0 -220 -87 -387t-249 -255.5t-378 -88.5q-332 0 -520.5 195.5t-188.5 535.5zM381 711q0 -232 110.5 -365.5t301.5 -133.5q198 0 305.5 130t107.5 369q0 228 -108 357.5t-303 129.5q-198 0 -306 -128.5t-108 -358.5z " />
<glyph unicode="P" horiz-adv-x="1366" d="M137 0v1409h633q253 0 389.5 -116.5t136.5 -329.5q0 -136 -62 -243t-177.5 -165.5t-274.5 -58.5h-350v-496h-295zM432 723h313q122 0 188 60.5t66 174.5q0 222 -262 222h-305v-457z" />
<glyph unicode="Q" horiz-adv-x="1593" d="M84 711q0 339 188 529t523 190t523.5 -192t188.5 -527q0 -282 -138.5 -469.5t-385.5 -237.5q34 -99 95.5 -143t172.5 -44q59 0 119 10l-2 -202q-126 -28 -242 -28q-163 0 -270 91t-172 302q-285 27 -442.5 217.5t-157.5 503.5zM381 711q0 -232 110 -366t302 -134 q198 0 305.5 130t107.5 370q0 228 -108 357.5t-303 129.5q-198 0 -306 -128.5t-108 -358.5z" />
<glyph unicode="R" horiz-adv-x="1479" d="M137 0v1409h704q252 0 389 -108.5t137 -311.5q0 -148 -84 -255.5t-227 -141.5l381 -592h-332l-327 535h-346v-535h-295zM432 764h386q124 0 188 56t64 157q0 203 -260 203h-378v-416z" />
<glyph unicode="S" horiz-adv-x="1366" d="M59 367l285 47q29 -112 113 -162.5t233 -50.5q309 0 309 188q0 60 -35.5 99t-100 65t-247.5 63q-158 37 -220 59.5t-112 53t-85 73.5t-54.5 101t-19.5 133q0 191 143.5 292.5t417.5 101.5q262 0 393.5 -82t169.5 -271l-286 -39q-22 91 -89.5 137t-193.5 46 q-268 0 -268 -168q0 -55 28.5 -90t84.5 -59.5t227 -61.5q203 -43 290.5 -79.5t138.5 -85t78 -116t27 -155.5q0 -207 -153.5 -316.5t-450.5 -109.5q-271 0 -425 96t-198 291z" />
<glyph unicode="T" horiz-adv-x="1251" d="M23 1181v228h1206v-228h-456v-1181h-295v1181h-455z" />
<glyph unicode="U" horiz-adv-x="1479" d="M123 528v881h295v-858q0 -167 79.5 -253.5t233.5 -86.5q158 0 243 90.5t85 259.5v848h295v-866q0 -268 -165.5 -415.5t-465.5 -147.5q-291 0 -445.5 142t-154.5 406z" />
<glyph unicode="V" horiz-adv-x="1366" d="M14 1409h308l290 -905q27 -88 74 -266l21 86l51 180l289 905h305l-518 -1409h-299z" />
<glyph unicode="W" horiz-adv-x="1933" d="M2 1409h299l204 -910l46 -220q28 139 54.5 265.5t199.5 864.5h330l178 -750q21 -84 71 -380l25 116l53 230l170 784h299l-364 -1409h-350l-191 815q-35 144 -59 301q-24 -131 -39 -199.5t-213 -916.5h-350z" />
<glyph unicode="X" horiz-adv-x="1366" d="M18 0l488 741l-447 668h312l313 -498l313 498h310l-428 -668l469 -741h-310l-354 561l-354 -561h-312z" />
<glyph unicode="Y" horiz-adv-x="1366" d="M35 1409h309l338 -596l342 596h309l-502 -831v-578h-294v578z" />
<glyph unicode="Z" horiz-adv-x="1251" d="M61 0v209l762 969h-686v231h1014v-205l-762 -973h803v-231h-1131z" />
<glyph unicode="[" horiz-adv-x="682" d="M115 -425v1909h542v-190h-276v-1528h276v-191h-542z" />
<glyph unicode="\" horiz-adv-x="569" d="M21 1485h238l291 -1526h-243z" />
<glyph unicode="]" horiz-adv-x="682" d="M25 -234h278v1528h-278v190h542v-1909h-542v191z" />
<glyph unicode="^" horiz-adv-x="1196" d="M45 514l391 895h322l393 -895h-229l-326 752l-324 -752h-227z" />
<glyph unicode="_" d="M-20 -172h1177v-78h-1177v78z" />
<glyph unicode="`" horiz-adv-x="682" d="M66 1459v43h258l251 -288v-31h-169z" />
<glyph unicode="a" d="M60 306q0 168 109.5 256t317.5 90l233 4v55q0 106 -37 157.5t-121 51.5q-78 0 -114.5 -35.5t-45.5 -117.5l-293 14q27 158 144.5 239.5t320.5 81.5q205 0 316 -101t111 -287v-394q0 -91 20.5 -125.5t68.5 -34.5q32 0 62 6v-152q-25 -6 -45 -11t-40 -8t-42.5 -5t-52.5 -2 q-106 0 -156.5 52t-60.5 153h-6q-118 -213 -356 -213q-157 0 -245 85.5t-88 240.5zM353 328q0 -77 35.5 -114.5t94.5 -37.5q66 0 120.5 36t85.5 99.5t31 134.5v55l-144 -2q-98 -4 -139 -21.5t-62.5 -53.5t-21.5 -96z" />
<glyph unicode="b" horiz-adv-x="1251" d="M135 0q8 93 8 247v1237h281v-414l-4 -176h4q95 208 346 208q192 0 294.5 -145.5t102.5 -411.5q0 -268 -107.5 -416.5t-307.5 -148.5q-115 0 -199 50t-129 144h-2q0 -35 -5 -96t-9 -78h-273zM420 536q0 -172 58.5 -268t172.5 -96q223 0 223 373q0 184 -54 273t-167 89 q-114 0 -173.5 -95.5t-59.5 -275.5z" />
<glyph unicode="c" d="M80 535q0 268 135 417.5t383 149.5q191 0 316 -96t157 -265l-283 -14q-12 83 -60 132.5t-136 49.5q-217 0 -217 -363q0 -374 221 -374q80 0 134 50.5t67 150.5l282 -13q-15 -111 -79.5 -198t-169.5 -134.5t-236 -47.5q-246 0 -380 146.5t-134 408.5z" />
<glyph unicode="d" horiz-adv-x="1251" d="M84 540q0 269 108.5 415.5t307.5 146.5q115 0 198.5 -48t128.5 -143h2l-2 178v395h281v-1248q0 -100 8 -236h-272q-4 15 -9.5 75.5t-5.5 100.5h-4q-91 -196 -346 -196q-189 0 -292 147.5t-103 412.5zM377 540q0 -368 221 -368q111 0 172 97.5t61 277.5q0 175 -58.5 269.5 t-172.5 94.5q-113 0 -168 -91.5t-55 -279.5z" />
<glyph unicode="e" d="M80 546q0 268 133 412t377 144q233 0 356 -154.5t123 -452.5v-8h-694q0 -158 58.5 -238.5t166.5 -80.5q149 0 188 129l265 -23q-115 -294 -467 -294q-244 0 -375 144.5t-131 421.5zM377 663h420q-8 131 -63 196.5t-148 65.5q-99 0 -152.5 -69t-56.5 -193z" />
<glyph unicode="f" horiz-adv-x="682" d="M35 892v190h158v113q0 147 78 218t237 71q79 0 178 -16v-181q-41 9 -82 9q-72 0 -101.5 -28.5t-29.5 -100.5v-85h213v-190h-213v-892h-280v892h-158z" />
<glyph unicode="g" horiz-adv-x="1251" d="M84 550q0 265 107 409t311 144q236 0 327 -195h5q0 35 4.5 95t9.5 79h266q-6 -108 -6 -250v-799q0 -231 -131 -349t-381 -118q-198 0 -318.5 75.5t-148.5 215.5l281 33q15 -65 64.5 -102t129.5 -37q117 0 171 72t54 214v57l2 107h-2q-93 -199 -348 -199q-189 0 -293 142 t-104 406zM377 550q0 -353 223 -353q112 0 171.5 93.5t59.5 265.5q0 167 -59.5 260.5t-169.5 93.5q-225 0 -225 -360z" />
<glyph unicode="h" horiz-adv-x="1251" d="M143 0v1484h281v-405q0 -109 -8 -213h4q57 124 143 180t205 56q172 0 264 -106t92 -310v-686h-280v606q0 285 -193 285q-102 0 -164.5 -87.5t-62.5 -224.5v-579h-281z" />
<glyph unicode="i" horiz-adv-x="569" d="M143 0v1082h281v-1082h-281zM143 1277v207h281v-207h-281z" />
<glyph unicode="j" horiz-adv-x="569" d="M-32 -218l51 -4q72 0 98.5 31.5t26.5 130.5v1142h281v-1210q0 -143 -72.5 -220t-214.5 -77q-100 0 -170 9v198zM144 1277v207h281v-207h-281z" />
<glyph unicode="k" d="M143 0v1484h281v-850l386 448h302l-380 -422l409 -660h-307l-289 490l-121 -84v-406h-281z" />
<glyph unicode="l" horiz-adv-x="569" d="M143 0v1484h281v-1484h-281z" />
<glyph unicode="m" horiz-adv-x="1821" d="M135 1082h268q3 -19 8 -101.5t5 -113.5h4q52 124 129.5 180t185.5 56q248 0 301 -236h6q55 126 132 181t196 55q158 0 241 -107.5t83 -308.5v-687h-279v607q0 285 -164 285q-82 0 -134.5 -79.5t-57.5 -219.5v-593h-279v607q0 285 -164 285q-85 0 -138.5 -87t-53.5 -225 v-580h-281v840q0 87 -2.5 142.5t-5.5 99.5z" />
<glyph unicode="n" horiz-adv-x="1251" d="M135 1082h268q3 -19 8 -101.5t5 -113.5h4q57 124 143 180t205 56q172 0 264 -106t92 -310v-687h-280v607q0 285 -193 285q-102 0 -164.5 -87.5t-62.5 -224.5v-580h-281v840q0 87 -2.5 142.5t-5.5 99.5z" />
<glyph unicode="o" horiz-adv-x="1251" d="M80 542q0 261 144 410.5t403 149.5q265 0 404.5 -144.5t139.5 -415.5q0 -263 -146 -412.5t-404 -149.5q-253 0 -397 150t-144 412zM375 542q0 -181 62.5 -275.5t180.5 -94.5q259 0 259 370q0 193 -63 280t-183 87q-256 0 -256 -367z" />
<glyph unicode="p" horiz-adv-x="1251" d="M135 1082h273q5 -18 8.5 -71t3.5 -105h4q95 199 346 199q189 0 293 -145.5t104 -413.5q0 -271 -108.5 -418.5t-306.5 -147.5q-114 0 -198.5 49.5t-129.5 142.5h-6q6 -30 6 -182v-415h-281v1258q0 153 -8 249zM420 538q0 -175 59.5 -270.5t169.5 -95.5q225 0 225 374 q0 364 -223 364q-112 0 -171.5 -98t-59.5 -274z" />
<glyph unicode="q" horiz-adv-x="1251" d="M84 540q0 268 109.5 415.5t308.5 147.5q236 0 327 -195q0 46 5.5 102.5t9.5 71.5h270q-6 -108 -6 -249v-1258h-279v450l5 155h-2q-93 -200 -353 -200q-189 0 -292 147.5t-103 412.5zM377 540q0 -368 223 -368q110 0 170.5 97.5t60.5 276.5q0 173 -58 268.5t-171 95.5 q-225 0 -225 -370z" />
<glyph unicode="r" horiz-adv-x="797" d="M135 1082h268q3 -18 8 -109.5t5 -121.5h4q41 114 73 160.5t76 69t110 22.5q54 0 87 -15v-235q-68 15 -120 15q-105 0 -163.5 -85t-58.5 -252v-531h-281v828q0 89 -2.5 148.5t-5.5 105.5z" />
<glyph unicode="s" d="M72 270l247 37q21 -77 72.5 -109t179.5 -32q118 0 172 30t54 94q0 52 -43.5 82.5t-147.5 51.5q-238 47 -321 87.5t-126.5 105t-43.5 158.5q0 155 119.5 241.5t338.5 86.5q193 0 310.5 -75t146.5 -217l-249 -26q-12 66 -59 98.5t-149 32.5q-100 0 -150 -25.5t-50 -85.5 q0 -47 38.5 -74.5t129.5 -45.5q127 -26 225.5 -53.5t158 -65.5t95 -97.5t35.5 -152.5q0 -157 -128.5 -246.5t-355.5 -89.5q-223 0 -341.5 70.5t-157.5 219.5z" />
<glyph unicode="t" horiz-adv-x="682" d="M25 892v190h151l88 254h176v-254h205v-190h-205v-562q0 -79 30 -116.5t93 -37.5q33 0 94 14v-174q-104 -34 -237 -34q-124 0 -191 67.5t-67 204.5v638h-137z" />
<glyph unicode="u" horiz-adv-x="1251" d="M127 395v687h281v-607q0 -285 192 -285q102 0 164.5 87.5t62.5 224.5v580h281v-840q0 -138 8 -242h-268q-12 144 -12 215h-5q-56 -123 -142.5 -179t-205.5 -56q-172 0 -264 105.5t-92 309.5z" />
<glyph unicode="v" d="M8 1082h297l189 -605q15 -50 71 -250q10 41 41 144t230 711h294l-399 -1082h-336z" />
<glyph unicode="w" horiz-adv-x="1593" d="M-6 1082h264l178 -827l14 74l25 117l170 636h301l166 -636q14 -52 41 -191l28 132l156 695h260l-284 -1082h-297l-172 660q-12 45 -47 222l-52 -224l-174 -658h-297z" />
<glyph unicode="x" d="M14 0l396 559l-377 523h303l231 -354l230 354h305l-377 -520l399 -562h-305l-252 392l-254 -392h-299z" />
<glyph unicode="y" d="M16 1082h297l170 -507q40 -109 101 -334l25 95l65 235l160 511h294l-428 -1139q-86 -208 -178.5 -288t-238.5 -80q-101 0 -177 13v200q53 -8 97 -8q60 0 99.5 19t71 63t70.5 149z" />
<glyph unicode="z" horiz-adv-x="1024" d="M82 0v199l509 680h-468v203h778v-201l-506 -676h555v-205h-868z" />
<glyph unicode="{" horiz-adv-x="797" d="M33 431v195q121 5 175 61.5t54 169.5v328q0 146 78.5 222.5t216.5 76.5h197v-190h-58q-91 0 -131.5 -52t-40.5 -157v-301q0 -95 -57.5 -164t-149.5 -88v-4q95 -22 151 -90.5t56 -161.5v-301q0 -106 40.5 -157.5t131.5 -51.5h58v-191h-197q-134 0 -214.5 78.5t-80.5 220.5 v328q0 114 -55 170.5t-174 58.5z" />
<glyph unicode="|" horiz-adv-x="573" d="M156 -455v1939h262v-1939h-262z" />
<glyph unicode="}" horiz-adv-x="797" d="M43 -234h57q93 0 132.5 51.5t39.5 157.5v301q0 92 56.5 161t150.5 91v4q-91 19 -149 87.5t-58 164.5v301q0 105 -39.5 157t-132.5 52h-57v190h197q138 0 216.5 -76.5t78.5 -222.5v-328q0 -112 55 -169t176 -62v-195q-121 -2 -176 -60t-55 -169v-328q0 -141 -80 -220 t-215 -79h-197v191z" />
<glyph unicode="~" horiz-adv-x="1196" d="M81 543v213q113 84 271 84q105 0 242 -47q132 -46 182 -58t95 -12q134 0 248 92v-219q-64 -44 -122.5 -62t-144.5 -18q-75 0 -147.5 21t-147.5 47q-135 47 -221 47q-71 0 -130.5 -21.5t-124.5 -66.5z" />
<glyph unicode="&#xa1;" horiz-adv-x="682" d="M194 -327l32 981h230l32 -981h-294zM200 812v270h288v-270h-288z" />
<glyph unicode="&#xa2;" d="M51 686q0 232 117.5 373t337.5 166v184h162v-184q169 -19 278 -112.5t137 -244.5l-282 -14q-15 91 -71 140.5t-144 49.5q-124 0 -188 -92t-64 -256q0 -174 66.5 -265t187.5 -91q88 0 147.5 54.5t73.5 154.5l283 -12q-22 -153 -134 -254.5t-290 -122.5v-191h-162v189 q-215 21 -335 157t-120 371z" />
<glyph unicode="&#xa3;" d="M21 604v170h178v248q0 201 107 304.5t319 103.5q169 0 266 -69t141 -222l-233 -47q-21 77 -62 112t-107 35q-91 0 -131 -57.5t-40 -182.5v-225h286v-170h-286v-90q0 -103 -41 -176t-141 -129h380q104 0 157.5 49.5t70.5 143.5l233 -39q-31 -172 -136 -267.5t-256 -95.5 h-694v205q102 58 139.5 130t37.5 177v92h-188z" />
<glyph unicode="&#xa4;" d="M57 328l135 137q-58 99 -58 219t60 221l-133 133l157 156l131 -133q101 59 220 59q121 0 219 -59l135 135l158 -158l-136 -135q60 -99 60 -219q0 -118 -58 -217l134 -133l-158 -160l-133 135q-100 -59 -221 -59q-122 0 -220 57l-135 -137zM360 686q0 -86 61 -147.5 t148 -61.5q85 0 146.5 62t61.5 147q0 86 -61 147.5t-147 61.5t-147.5 -61t-61.5 -148z" />
<glyph unicode="&#xa5;" d="M8 1409h289l270 -596l274 596h289l-364 -718h276v-146h-338v-162h338v-147h-338v-236h-272v236h-336v147h336l2 162h-338v146h276z" />
<glyph unicode="&#xa6;" horiz-adv-x="573" d="M156 324h262v-779h-262v779zM156 676v778h262v-778h-262z" />
<glyph unicode="&#xa7;" d="M53 59l237 37q20 -80 81.5 -117.5t184.5 -37.5q122 0 185 32.5t63 112.5q0 48 -24 78t-75.5 52.5t-236.5 66.5q-206 49 -291.5 127t-85.5 190q0 93 55 157t158 99q-90 38 -139 106t-49 152q0 149 117.5 231t341.5 82q194 0 311.5 -70.5t144.5 -203.5l-239 -25 q-13 62 -70 95.5t-147 33.5q-112 0 -164.5 -29.5t-52.5 -94.5q0 -41 27 -69.5t76.5 -50t180.5 -50.5q168 -38 248.5 -79t123 -102t42.5 -148q0 -93 -55 -164.5t-142 -98.5q181 -79 181 -256q0 -167 -125.5 -255.5t-358.5 -88.5q-223 0 -343.5 69.5t-159.5 218.5zM333 627 q0 -41 27 -68.5t77 -48.5t186 -52q195 10 195 142q0 71 -59.5 109t-232.5 71q-193 -23 -193 -153z" />
<glyph unicode="&#xa8;" horiz-adv-x="682" d="M16 1199v219h214v-219h-214zM450 1199v219h217v-219h-217z" />
<glyph unicode="&#xa9;" horiz-adv-x="1509" d="M32 707q0 193 97 361t265 265t361 97q194 0 362.5 -97.5t264.5 -264.5t96 -361q0 -193 -96.5 -361.5t-265 -265t-361.5 -96.5q-197 0 -366.5 100.5t-263 267t-93.5 355.5zM147 707q0 -163 81.5 -305t222 -224t304.5 -82t306 82t223.5 224t81.5 305t-82 303.5t-224 222.5 t-305 82q-157 0 -297 -78t-225.5 -219.5t-85.5 -310.5zM364 709q0 203 102 309t293 106q130 0 217.5 -56t135.5 -173l-156 -41q-26 61 -74.5 95t-117.5 34q-109 0 -164.5 -70t-55.5 -204q0 -135 59 -209t165 -74q66 0 117 37t79 106l160 -47q-58 -125 -145 -181t-211 -56 q-193 0 -298.5 111t-105.5 313z" />
<glyph unicode="&#xaa;" horiz-adv-x="758" d="M45 927q0 206 284 211l147 2v42q0 119 -104 119q-102 0 -112 -94l-190 9q18 98 96.5 150.5t204.5 52.5q138 0 212.5 -61t74.5 -174v-237q0 -48 9 -72.5t42 -24.5l49 5v-109q-65 -18 -119 -18q-71 0 -111.5 36.5t-45.5 97.5h-3q-72 -137 -222 -137q-97 0 -154.5 52.5 t-57.5 149.5zM234 941q0 -85 94 -85q61 0 104.5 48t43.5 113v27l-92 -2q-88 -3 -119 -27t-31 -74z" />
<glyph unicode="&#xab;" d="M92 502v71l258 367h236v-37l-254 -366l256 -361v-35h-238zM551 502v71l256 367h238v-37l-254 -366l256 -361v-35h-240z" />
<glyph unicode="&#xac;" horiz-adv-x="1196" d="M84 569v224h1027v-652h-224v428h-803z" />
<glyph unicode="&#xad;" horiz-adv-x="682" d="M80 409v244h520v-244h-520z" />
<glyph unicode="&#xae;" horiz-adv-x="1509" d="M32 707q0 193 97 361t265 265t361 97q194 0 362.5 -97.5t264.5 -264.5t96 -361q0 -193 -96.5 -361.5t-265 -265t-361.5 -96.5q-197 0 -366.5 100.5t-263 267t-93.5 355.5zM147 707q0 -163 81.5 -305t222 -224t304.5 -82t306 82t223.5 224t81.5 305t-82 303.5t-224 222.5 t-305 82q-157 0 -297 -78t-225.5 -219.5t-85.5 -310.5zM450 297v815h330q153 0 229 -64.5t76 -177.5q0 -94 -48 -153t-126 -84l213 -336h-201l-178 313h-117v-313h-178zM628 739h144q66 0 99.5 35.5t33.5 93.5q0 57 -37.5 87t-106.5 30h-133v-246z" />
<glyph unicode="&#xaf;" horiz-adv-x="1131" d="M-17 1452v94h1165v-94h-1165z" />
<glyph unicode="&#xb0;" horiz-adv-x="819" d="M90 1110q0 86 42.5 159t116 114.5t161.5 41.5q135 0 228 -92.5t93 -222.5t-93.5 -222.5t-227.5 -92.5q-132 0 -226 91t-94 224zM244 1110q0 -69 49 -118.5t117 -49.5q67 0 115 49t48 119t-46.5 118t-116.5 48q-71 0 -118.5 -48.5t-47.5 -117.5z" />
<glyph unicode="&#xb1;" horiz-adv-x="1124" d="M49 0v223h1027v-223h-1027zM49 707v223h401v340h224v-340h402v-223h-402v-341h-224v341h-401z" />
<glyph unicode="&#xb2;" horiz-adv-x="682" d="M51 815q29 61 82 113.5t144 111.5q87 56 119 92.5t32 75.5q0 91 -81 91q-85 0 -95 -98l-194 5q13 99 89 159.5t200 60.5q131 0 205 -55.5t74 -154.5q0 -125 -153 -223q-103 -66 -141.5 -97t-54.5 -64h362v-138h-586z" />
<glyph unicode="&#xb3;" horiz-adv-x="682" d="M44 892l189 12q10 -93 114 -93q102 0 102 96q0 93 -139 93h-56v126h51q63 0 95 23.5t32 66.5q0 39 -23 61t-66 22q-88 0 -98 -89l-186 12q11 94 87.5 149t201.5 55q128 0 199.5 -51.5t71.5 -136.5q0 -64 -36.5 -109.5t-115.5 -61.5v-2q83 -9 127 -55t44 -115 q0 -99 -75 -155t-213 -56q-135 0 -214 52t-92 156z" />
<glyph unicode="&#xb4;" horiz-adv-x="682" d="M87 1183v31l252 288h258v-43l-340 -276h-170z" />
<glyph unicode="&#xb5;" horiz-adv-x="1180" d="M134 -426v1508h281v-605q0 -150 42.5 -217t132.5 -67q89 0 133.5 76t44.5 235v578h281v-840q0 -130 8 -242h-268q-13 100 -13 144h-3q-33 -86 -78 -125t-124 -39q-52 0 -92.5 24t-63.5 66h-4q4 -43 4 -115v-381h-281z" />
<glyph unicode="&#xb6;" d="M71 1049q0 169 98.5 264.5t272.5 95.5h629v-143h-131v-1530h-156v1530h-195v-1530h-155v958q-169 0 -266 92.5t-97 262.5z" />
<glyph unicode="&#xb7;" horiz-adv-x="682" d="M141 531v305h288v-305h-288z" />
<glyph unicode="&#xb8;" horiz-adv-x="682" d="M96 -301q35 -7 84 -7q137 0 137 69q0 35 -28 52t-94 17q-38 0 -52 -2l62 172h143l-33 -82q94 -5 139.5 -46t45.5 -107q0 -94 -78 -142t-225 -48q-45 0 -101 6v118z" />
<glyph unicode="&#xb9;" horiz-adv-x="682" d="M82 694v121h184v468l-173 -108v122l180 117h175v-599h170v-121h-536z" />
<glyph unicode="&#xba;" horiz-adv-x="748" d="M45 1073q0 162 88 254t246 92q160 0 247 -89t87 -257q0 -162 -89.5 -255t-248.5 -93q-152 0 -241 92t-89 256zM243 1073q0 -106 32 -157t99 -51q75 0 107 50.5t32 157.5q0 106 -29.5 154.5t-102.5 48.5t-105.5 -49.5t-32.5 -153.5z" />
<glyph unicode="&#xbb;" d="M93 141v35l256 361l-254 366v37h238l256 -367v-71l-256 -361h-240zM552 141v35l256 361l-254 366v37h236l258 -367v-71l-258 -361h-238z" />
<glyph unicode="&#xbc;" horiz-adv-x="1708" d="M94 694v121h184v468l-173 -108v122l180 117h175v-599h170v-121h-536zM343 0l895 1409h201l-895 -1409h-201zM981 141v148l316 432h211v-440h103v-140h-103v-140h-183v140h-344zM1123 281h202v194l4 108l-11 -19q-26 -47 -54 -89z" />
<glyph unicode="&#xbd;" horiz-adv-x="1708" d="M94 694v121h184v468l-173 -108v122l180 117h175v-599h170v-121h-536zM323 0l895 1409h201l-895 -1409h-201zM1024 120q29 61 82 113.5t144 111.5q87 56 119 92.5t32 75.5q0 91 -81 91q-85 0 -95 -98l-194 5q13 99 89 159.5t200 60.5q131 0 205 -55.5t74 -154.5 q0 -125 -153 -223q-103 -66 -141.5 -97t-54.5 -64h362v-138h-586z" />
<glyph unicode="&#xbe;" horiz-adv-x="1708" d="M103 892l189 12q10 -93 114 -93q102 0 102 96q0 93 -139 93h-56v126h51q63 0 95 23.5t32 66.5q0 39 -23 61t-66 22q-88 0 -98 -89l-186 12q11 94 87.5 149t201.5 55q128 0 199.5 -51.5t71.5 -136.5q0 -64 -36.5 -109.5t-115.5 -61.5v-2q83 -9 127 -55t44 -115 q0 -99 -75 -155t-213 -56q-135 0 -214 52t-92 156zM343 0l895 1409h201l-895 -1409h-201zM981 141v148l316 432h211v-440h103v-140h-103v-140h-183v140h-344zM1123 281h202v194l4 108l-11 -19q-26 -47 -54 -89z" />
<glyph unicode="&#xbf;" horiz-adv-x="1251" d="M114 56q0 97 43.5 174t162.5 162l77 55q67 49 100.5 99t36.5 110h267q-6 -102 -58 -182.5t-151 -148.5q-107 -75 -151 -131t-44 -126q0 -88 57.5 -139t163.5 -51q101 0 169.5 59t80.5 156l285 -12q-27 -203 -167 -316t-364 -113q-237 0 -372.5 107.5t-135.5 296.5z M520 812v270h289v-270h-289z" />
<glyph unicode="&#xc0;" horiz-adv-x="1479" d="M51 0l514 1409h348l512 -1409h-292l-125 360h-537l-125 -360h-295zM429 1772v43h258l251 -254v-31h-169zM537 582h405l-139 405l-43 136l-21 69l-6 -22q-10 -36 -24 -82t-172 -506z" />
<glyph unicode="&#xc1;" horiz-adv-x="1479" d="M51 0l514 1409h348l512 -1409h-292l-125 360h-537l-125 -360h-295zM537 582h405l-139 405l-43 136l-21 69l-6 -22q-10 -36 -24 -82t-172 -506zM573 1530v31l252 254h258v-43l-340 -242h-170z" />
<glyph unicode="&#xc2;" horiz-adv-x="1479" d="M51 0l514 1409h348l512 -1409h-292l-125 360h-537l-125 -360h-295zM370 1530v29l258 276h229l250 -276v-29h-159l-203 151h-4l-211 -151h-160zM537 582h405l-139 405l-43 136l-21 69l-6 -22q-10 -36 -24 -82t-172 -506z" />
<glyph unicode="&#xc3;" horiz-adv-x="1479" d="M51 0l514 1409h348l512 -1409h-292l-125 360h-537l-125 -360h-295zM348 1530q8 113 32.5 169.5t70.5 90t122 33.5q45 0 90 -19t87 -42.5t78.5 -42.5t65.5 -19q40 0 62.5 24.5t36.5 98.5h135q-7 -157 -63.5 -225t-159.5 -68q-44 0 -88.5 19t-86.5 42.5t-79.5 42.5 t-67.5 19q-41 0 -62.5 -23t-35.5 -100h-137zM537 582h405l-139 405l-43 136l-21 69l-6 -22q-10 -36 -24 -82t-172 -506z" />
<glyph unicode="&#xc4;" horiz-adv-x="1479" d="M51 0l514 1409h348l512 -1409h-292l-125 360h-537l-125 -360h-295zM414 1530v219h194v-219h-194zM537 582h405l-139 405l-43 136l-21 69l-6 -22q-10 -36 -24 -82t-172 -506zM868 1530v219h197v-219h-197z" />
<glyph unicode="&#xc5;" horiz-adv-x="1479" d="M51 0l514 1409h348l512 -1409h-292l-125 360h-537l-125 -360h-295zM485 1552q0 105 74.5 179.5t179.5 74.5t179.5 -74.5t74.5 -179.5t-73.5 -179.5t-180.5 -74.5t-180.5 74.5t-73.5 179.5zM537 582h405l-139 405l-43 136l-21 69l-6 -22q-10 -36 -24 -82t-172 -506z M614 1552q0 -56 37 -92t88 -36q53 0 90 37t37 91q0 51 -36.5 88t-90.5 37q-51 0 -88 -36t-37 -89z" />
<glyph unicode="&#xc6;" horiz-adv-x="2048" d="M4 0l700 1409h1223v-227h-701v-355h639v-221h-639v-379h742v-227h-1037v360h-450l-172 -360h-305zM583 582h348v610h-61q-49 -111 -287 -610z" />
<glyph unicode="&#xc7;" horiz-adv-x="1479" d="M84 711q0 347 179 533t519 186q248 0 404 -99.5t219 -292.5l-260 -71q-33 106 -129.5 168.5t-227.5 62.5q-200 0 -303.5 -124t-103.5 -363q0 -243 106.5 -371t307.5 -128q267 0 371 268l257 -97q-83 -204 -243.5 -303.5t-384.5 -99.5q-340 0 -525.5 192.5t-185.5 538.5z M585 -301q35 -7 84 -7q137 0 137 69q0 35 -28 52t-94 17q-38 0 -52 -2l62 172h143l-33 -82q94 -5 139.5 -46t45.5 -107q0 -94 -78 -142t-225 -48q-45 0 -101 6v118z" />
<glyph unicode="&#xc8;" horiz-adv-x="1366" d="M137 0v1409h1108v-228h-813v-354h752v-228h-752v-371h854v-228h-1149zM396 1772v43h258l251 -254v-31h-169z" />
<glyph unicode="&#xc9;" horiz-adv-x="1366" d="M137 0v1409h1108v-228h-813v-354h752v-228h-752v-371h854v-228h-1149zM517 1530v31l252 254h258v-43l-340 -242h-170z" />
<glyph unicode="&#xca;" horiz-adv-x="1366" d="M137 0v1409h1108v-228h-813v-354h752v-228h-752v-371h854v-228h-1149zM344 1530v29l258 276h229l250 -276v-29h-159l-203 151h-4l-211 -151h-160z" />
<glyph unicode="&#xcb;" horiz-adv-x="1366" d="M137 0v1409h1108v-228h-813v-354h752v-228h-752v-371h854v-228h-1149zM386 1530v219h194v-219h-194zM840 1530v219h197v-219h-197z" />
<glyph unicode="&#xcc;" horiz-adv-x="569" d="M-40 1772v43h258l251 -254v-31h-169zM137 0v1409h295v-1409h-295z" />
<glyph unicode="&#xcd;" horiz-adv-x="569" d="M104 1530v31l252 254h258v-43l-340 -242h-170zM137 0v1409h295v-1409h-295z" />
<glyph unicode="&#xce;" horiz-adv-x="569" d="M-85 1530v29l258 276h229l250 -276v-29h-159l-203 151h-4l-211 -151h-160zM137 0v1409h295v-1409h-295z" />
<glyph unicode="&#xcf;" horiz-adv-x="569" d="M-41 1530v219h194v-219h-194zM137 0v1409h295v-1409h-295zM413 1530v219h197v-219h-197z" />
<glyph unicode="&#xd0;" horiz-adv-x="1479" d="M8 594v219h129v596h510q356 0 551 -179.5t195 -514.5q0 -218 -85.5 -380.5t-242 -248.5t-358.5 -86h-570v594h-129zM432 231h250q191 0 302.5 129.5t111.5 354.5t-117 344t-338 119h-209v-365h356v-219h-356v-363z" />
<glyph unicode="&#xd1;" horiz-adv-x="1479" d="M137 0v1409h337l623 -1094q-18 151 -18 275v819h262v-1409h-346l-614 1085q18 -158 18 -254v-831h-262zM349 1530q8 113 32.5 169.5t70.5 90t122 33.5q45 0 90 -19t87 -42.5t78.5 -42.5t65.5 -19q40 0 62.5 24.5t36.5 98.5h135q-7 -157 -63.5 -225t-159.5 -68 q-44 0 -88.5 19t-86.5 42.5t-79.5 42.5t-67.5 19q-41 0 -62.5 -23t-35.5 -100h-137z" />
<glyph unicode="&#xd2;" horiz-adv-x="1593" d="M84 711q0 339 188 529t523 190t523.5 -192t188.5 -527q0 -220 -87 -387t-249 -255.5t-378 -88.5q-332 0 -520.5 195.5t-188.5 535.5zM381 711q0 -232 110.5 -365.5t301.5 -133.5q198 0 305.5 130t107.5 369q0 228 -108 357.5t-303 129.5q-198 0 -306 -128.5t-108 -358.5z M547 1772v43h258l251 -254v-31h-169z" />
<glyph unicode="&#xd3;" horiz-adv-x="1593" d="M84 711q0 339 188 529t523 190t523.5 -192t188.5 -527q0 -220 -87 -387t-249 -255.5t-378 -88.5q-332 0 -520.5 195.5t-188.5 535.5zM381 711q0 -232 110.5 -365.5t301.5 -133.5q198 0 305.5 130t107.5 369q0 228 -108 357.5t-303 129.5q-198 0 -306 -128.5t-108 -358.5z M625 1530v31l252 254h258v-43l-340 -242h-170z" />
<glyph unicode="&#xd4;" horiz-adv-x="1593" d="M84 711q0 339 188 529t523 190t523.5 -192t188.5 -527q0 -220 -87 -387t-249 -255.5t-378 -88.5q-332 0 -520.5 195.5t-188.5 535.5zM381 711q0 -232 110.5 -365.5t301.5 -133.5q198 0 305.5 130t107.5 369q0 228 -108 357.5t-303 129.5q-198 0 -306 -128.5t-108 -358.5z M426 1530v29l258 276h229l250 -276v-29h-159l-203 151h-4l-211 -151h-160z" />
<glyph unicode="&#xd5;" horiz-adv-x="1593" d="M84 711q0 339 188 529t523 190t523.5 -192t188.5 -527q0 -220 -87 -387t-249 -255.5t-378 -88.5q-332 0 -520.5 195.5t-188.5 535.5zM381 711q0 -232 110.5 -365.5t301.5 -133.5q198 0 305.5 130t107.5 369q0 228 -108 357.5t-303 129.5q-198 0 -306 -128.5t-108 -358.5z M397 1530q8 113 32.5 169.5t70.5 90t122 33.5q45 0 90 -19t87 -42.5t78.5 -42.5t65.5 -19q40 0 62.5 24.5t36.5 98.5h135q-7 -157 -63.5 -225t-159.5 -68q-44 0 -88.5 19t-86.5 42.5t-79.5 42.5t-67.5 19q-41 0 -62.5 -23t-35.5 -100h-137z" />
<glyph unicode="&#xd6;" horiz-adv-x="1593" d="M84 711q0 339 188 529t523 190t523.5 -192t188.5 -527q0 -220 -87 -387t-249 -255.5t-378 -88.5q-332 0 -520.5 195.5t-188.5 535.5zM381 711q0 -232 110.5 -365.5t301.5 -133.5q198 0 305.5 130t107.5 369q0 228 -108 357.5t-303 129.5q-198 0 -306 -128.5t-108 -358.5z M469 1530v219h194v-219h-194zM923 1530v219h197v-219h-197z" />
<glyph unicode="&#xd7;" horiz-adv-x="1196" d="M86 326l356 358l-352 352l158 156l352 -350l352 352l158 -158l-352 -354l352 -350l-158 -160l-352 354l-356 -358z" />
<glyph unicode="&#xd8;" horiz-adv-x="1593" d="M84 711q0 339 188 529t523 190q198 0 354 -74l82 117h193l-142 -203q112 -94 169 -236.5t57 -322.5q0 -220 -87 -387t-248.5 -255.5t-379.5 -88.5q-212 0 -360 77l-91 -129l-195 -1l154 218q-217 197 -217 566zM381 711q0 -205 84 -332l539 768q-92 51 -209 51 q-198 0 -306 -128.5t-108 -358.5zM580 266q91 -55 213 -55q199 0 306.5 130.5t107.5 369.5q0 203 -86 327z" />
<glyph unicode="&#xd9;" horiz-adv-x="1479" d="M123 528v881h295v-858q0 -167 79.5 -253.5t233.5 -86.5q158 0 243 90.5t85 259.5v848h295v-866q0 -268 -165.5 -415.5t-465.5 -147.5q-291 0 -445.5 142t-154.5 406zM416 1772v43h258l251 -254v-31h-169z" />
<glyph unicode="&#xda;" horiz-adv-x="1479" d="M123 528v881h295v-858q0 -167 79.5 -253.5t233.5 -86.5q158 0 243 90.5t85 259.5v848h295v-866q0 -268 -165.5 -415.5t-465.5 -147.5q-291 0 -445.5 142t-154.5 406zM592 1530v31l252 254h258v-43l-340 -242h-170z" />
<glyph unicode="&#xdb;" horiz-adv-x="1479" d="M123 528v881h295v-858q0 -167 79.5 -253.5t233.5 -86.5q158 0 243 90.5t85 259.5v848h295v-866q0 -268 -165.5 -415.5t-465.5 -147.5q-291 0 -445.5 142t-154.5 406zM368 1530v29l258 276h229l250 -276v-29h-159l-203 151h-4l-211 -151h-160z" />
<glyph unicode="&#xdc;" horiz-adv-x="1479" d="M123 528v881h295v-858q0 -167 79.5 -253.5t233.5 -86.5q158 0 243 90.5t85 259.5v848h295v-866q0 -268 -165.5 -415.5t-465.5 -147.5q-291 0 -445.5 142t-154.5 406zM413 1530v219h194v-219h-194zM867 1530v219h197v-219h-197z" />
<glyph unicode="&#xdd;" horiz-adv-x="1366" d="M35 1409h309l338 -596l342 596h309l-502 -831v-578h-294v578zM524 1530v31l252 254h258v-43l-340 -242h-170z" />
<glyph unicode="&#xde;" horiz-adv-x="1366" d="M137 0v1409h295v-233h338q254 0 390 -113.5t136 -325.5q0 -134 -60.5 -237t-177 -160t-276.5 -57h-350v-283h-295zM432 492h313q121 0 187.5 63.5t66.5 177.5q0 110 -65.5 172t-196.5 62h-305v-475z" />
<glyph unicode="&#xdf;" horiz-adv-x="1251" d="M143 0v1007q0 234 127.5 355.5t367.5 121.5q206 0 325 -90t119 -245q0 -54 -16.5 -96.5t-41.5 -76.5t-54.5 -61t-54.5 -49.5t-41.5 -43t-16.5 -40.5q0 -25 20.5 -47.5t147.5 -116.5q168 -125 168 -306q0 -162 -100.5 -247t-286.5 -85q-146 0 -262 43v206 q50 -23 117.5 -41t114.5 -18q81 0 118 34.5t37 91.5q0 52 -38 96.5t-131 105.5q-169 109 -169 262q0 54 27.5 101t84.5 97q61 54 86 94.5t25 85.5q0 65 -46.5 104t-134.5 39q-103 0 -157 -63.5t-54 -204.5v-1013h-281z" />
<glyph unicode="&#xe0;" d="M52 306q0 168 109.5 256t317.5 90l233 4v55q0 106 -37 157.5t-121 51.5q-78 0 -114.5 -35.5t-45.5 -117.5l-293 14q27 158 144.5 239.5t320.5 81.5q205 0 316 -101t111 -287v-394q0 -91 20.5 -125.5t68.5 -34.5q32 0 62 6v-152q-25 -6 -45 -11t-40 -8t-42.5 -5t-52.5 -2 q-106 0 -156.5 52t-60.5 153h-6q-118 -213 -356 -213q-157 0 -245 85.5t-88 240.5zM240 1459v43h258l251 -288v-31h-169zM345 328q0 -77 35.5 -114.5t94.5 -37.5q66 0 120.5 36t85.5 99.5t31 134.5v55l-144 -2q-98 -4 -139 -21.5t-62.5 -53.5t-21.5 -96z" />
<glyph unicode="&#xe1;" d="M52 306q0 168 109.5 256t317.5 90l233 4v55q0 106 -37 157.5t-121 51.5q-78 0 -114.5 -35.5t-45.5 -117.5l-293 14q27 158 144.5 239.5t320.5 81.5q205 0 316 -101t111 -287v-394q0 -91 20.5 -125.5t68.5 -34.5q32 0 62 6v-152q-25 -6 -45 -11t-40 -8t-42.5 -5t-52.5 -2 q-106 0 -156.5 52t-60.5 153h-6q-118 -213 -356 -213q-157 0 -245 85.5t-88 240.5zM345 328q0 -77 35.5 -114.5t94.5 -37.5q66 0 120.5 36t85.5 99.5t31 134.5v55l-144 -2q-98 -4 -139 -21.5t-62.5 -53.5t-21.5 -96zM375 1183v31l252 288h258v-43l-340 -276h-170z" />
<glyph unicode="&#xe2;" d="M52 306q0 168 109.5 256t317.5 90l233 4v55q0 106 -37 157.5t-121 51.5q-78 0 -114.5 -35.5t-45.5 -117.5l-293 14q27 158 144.5 239.5t320.5 81.5q205 0 316 -101t111 -287v-394q0 -91 20.5 -125.5t68.5 -34.5q32 0 62 6v-152q-25 -6 -45 -11t-40 -8t-42.5 -5t-52.5 -2 q-106 0 -156.5 52t-60.5 153h-6q-118 -213 -356 -213q-157 0 -245 85.5t-88 240.5zM199 1183v28l258 318h229l250 -318v-28h-159l-203 192h-4l-211 -192h-160zM345 328q0 -77 35.5 -114.5t94.5 -37.5q66 0 120.5 36t85.5 99.5t31 134.5v55l-144 -2q-98 -4 -139 -21.5 t-62.5 -53.5t-21.5 -96z" />
<glyph unicode="&#xe3;" d="M52 306q0 168 109.5 256t317.5 90l233 4v55q0 106 -37 157.5t-121 51.5q-78 0 -114.5 -35.5t-45.5 -117.5l-293 14q27 158 144.5 239.5t320.5 81.5q205 0 316 -101t111 -287v-394q0 -91 20.5 -125.5t68.5 -34.5q32 0 62 6v-152q-25 -6 -45 -11t-40 -8t-42.5 -5t-52.5 -2 q-106 0 -156.5 52t-60.5 153h-6q-118 -213 -356 -213q-157 0 -245 85.5t-88 240.5zM162 1183q8 113 32.5 169.5t70.5 90t122 33.5q45 0 90 -19t87 -42.5t78.5 -42.5t65.5 -19q40 0 62.5 24.5t36.5 98.5h135q-7 -157 -63.5 -225t-159.5 -68q-44 0 -88.5 19t-86.5 42.5 t-79.5 42.5t-67.5 19q-41 0 -62.5 -23t-35.5 -100h-137zM345 328q0 -77 35.5 -114.5t94.5 -37.5q66 0 120.5 36t85.5 99.5t31 134.5v55l-144 -2q-98 -4 -139 -21.5t-62.5 -53.5t-21.5 -96z" />
<glyph unicode="&#xe4;" d="M52 306q0 168 109.5 256t317.5 90l233 4v55q0 106 -37 157.5t-121 51.5q-78 0 -114.5 -35.5t-45.5 -117.5l-293 14q27 158 144.5 239.5t320.5 81.5q205 0 316 -101t111 -287v-394q0 -91 20.5 -125.5t68.5 -34.5q32 0 62 6v-152q-25 -6 -45 -11t-40 -8t-42.5 -5t-52.5 -2 q-106 0 -156.5 52t-60.5 153h-6q-118 -213 -356 -213q-157 0 -245 85.5t-88 240.5zM231 1199v219h214v-219h-214zM345 328q0 -77 35.5 -114.5t94.5 -37.5q66 0 120.5 36t85.5 99.5t31 134.5v55l-144 -2q-98 -4 -139 -21.5t-62.5 -53.5t-21.5 -96zM665 1199v219h217v-219 h-217z" />
<glyph unicode="&#xe5;" d="M52 306q0 168 109.5 256t317.5 90l233 4v55q0 106 -37 157.5t-121 51.5q-78 0 -114.5 -35.5t-45.5 -117.5l-293 14q27 158 144.5 239.5t320.5 81.5q205 0 316 -101t111 -287v-394q0 -91 20.5 -125.5t68.5 -34.5q32 0 62 6v-152q-25 -6 -45 -11t-40 -8t-42.5 -5t-52.5 -2 q-106 0 -156.5 52t-60.5 153h-6q-118 -213 -356 -213q-157 0 -245 85.5t-88 240.5zM305 1431q0 105 74.5 179.5t179.5 74.5t179.5 -74.5t74.5 -179.5t-73.5 -179.5t-180.5 -74.5t-180.5 74.5t-73.5 179.5zM345 328q0 -77 35.5 -114.5t94.5 -37.5q66 0 120.5 36t85.5 99.5 t31 134.5v55l-144 -2q-98 -4 -139 -21.5t-62.5 -53.5t-21.5 -96zM434 1431q0 -56 37 -92t88 -36q53 0 90 37t37 91q0 51 -36.5 88t-90.5 37q-51 0 -88 -36t-37 -89z" />
<glyph unicode="&#xe6;" horiz-adv-x="1821" d="M66 306q0 166 111 253.5t329 92.5l240 4v55q0 108 -40 158.5t-128 50.5q-85 0 -123 -37t-47 -116l-293 14q26 157 144.5 239t326.5 82q217 0 333 -107q130 107 338 107q233 0 356 -154.5t123 -452.5v-19h-694q0 -146 59 -227t166 -81q149 0 188 129l265 -23 q-115 -294 -467 -294q-310 0 -434 229q-133 -229 -413 -229q-161 0 -250.5 86t-89.5 240zM359 328q0 -77 37.5 -114.5t99.5 -37.5q69 0 127 39t90.5 104t32.5 137v45l-152 -2q-104 -4 -147 -21.5t-65.5 -53.5t-22.5 -96zM1044 663h420q-8 131 -63 196.5t-148 65.5 q-99 0 -152.5 -69t-56.5 -193z" />
<glyph unicode="&#xe7;" d="M80 535q0 268 135 417.5t383 149.5q191 0 316 -96t157 -265l-283 -14q-12 83 -60 132.5t-136 49.5q-217 0 -217 -363q0 -374 221 -374q80 0 134 50.5t67 150.5l282 -13q-15 -111 -79.5 -198t-169.5 -134.5t-236 -47.5q-246 0 -380 146.5t-134 408.5zM387 -301 q35 -7 84 -7q137 0 137 69q0 35 -28 52t-94 17q-38 0 -52 -2l62 172h143l-33 -82q94 -5 139.5 -46t45.5 -107q0 -94 -78 -142t-225 -48q-45 0 -101 6v118z" />
<glyph unicode="&#xe8;" d="M80 546q0 268 133 412t377 144q233 0 356 -154.5t123 -452.5v-8h-694q0 -158 58.5 -238.5t166.5 -80.5q149 0 188 129l265 -23q-115 -294 -467 -294q-244 0 -375 144.5t-131 421.5zM287 1459v43h258l251 -288v-31h-169zM377 663h420q-8 131 -63 196.5t-148 65.5 q-99 0 -152.5 -69t-56.5 -193z" />
<glyph unicode="&#xe9;" d="M80 546q0 268 133 412t377 144q233 0 356 -154.5t123 -452.5v-8h-694q0 -158 58.5 -238.5t166.5 -80.5q149 0 188 129l265 -23q-115 -294 -467 -294q-244 0 -375 144.5t-131 421.5zM377 663h420q-8 131 -63 196.5t-148 65.5q-99 0 -152.5 -69t-56.5 -193zM418 1183v31 l252 288h258v-43l-340 -276h-170z" />
<glyph unicode="&#xea;" d="M80 546q0 268 133 412t377 144q233 0 356 -154.5t123 -452.5v-8h-694q0 -158 58.5 -238.5t166.5 -80.5q149 0 188 129l265 -23q-115 -294 -467 -294q-244 0 -375 144.5t-131 421.5zM223 1183v28l258 318h229l250 -318v-28h-159l-203 192h-4l-211 -192h-160zM377 663h420 q-8 131 -63 196.5t-148 65.5q-99 0 -152.5 -69t-56.5 -193z" />
<glyph unicode="&#xeb;" d="M80 546q0 268 133 412t377 144q233 0 356 -154.5t123 -452.5v-8h-694q0 -158 58.5 -238.5t166.5 -80.5q149 0 188 129l265 -23q-115 -294 -467 -294q-244 0 -375 144.5t-131 421.5zM260 1199v219h214v-219h-214zM377 663h420q-8 131 -63 196.5t-148 65.5 q-99 0 -152.5 -69t-56.5 -193zM694 1199v219h217v-219h-217z" />
<glyph unicode="&#xec;" horiz-adv-x="569" d="M-64 1459v43h258l251 -288v-31h-169zM145 0v1082h281v-1082h-281z" />
<glyph unicode="&#xed;" horiz-adv-x="569" d="M114 1183v31l252 288h258v-43l-340 -276h-170zM145 0v1082h281v-1082h-281z" />
<glyph unicode="&#xee;" horiz-adv-x="569" d="M-83 1183v28l258 318h229l250 -318v-28h-159l-203 192h-4l-211 -192h-160zM145 0v1082h281v-1082h-281z" />
<glyph unicode="&#xef;" horiz-adv-x="569" d="M-40 1199v219h214v-219h-214zM145 0v1082h281v-1082h-281zM394 1199v219h217v-219h-217z" />
<glyph unicode="&#xf0;" horiz-adv-x="1251" d="M80 479q0 232 144.5 363t402.5 131q105 0 163 -32q-64 136 -150 235l-292 -122v184l166 70q-88 71 -258 176h293q96 -48 160 -94l268 113v-188l-121 -49q315 -320 315 -725v-4q0 -261 -144.5 -408t-403.5 -147q-251 0 -397 133t-146 364zM375 477q0 -148 62 -226.5 t181 -78.5q125 0 192 72t67 233q0 160 -63 231.5t-183 71.5q-256 0 -256 -303z" />
<glyph unicode="&#xf1;" horiz-adv-x="1251" d="M135 1082h268q3 -19 8 -101.5t5 -113.5h4q57 124 143 180t205 56q172 0 264 -106t92 -310v-687h-280v607q0 285 -193 285q-102 0 -164.5 -87.5t-62.5 -224.5v-580h-281v840q0 87 -2.5 142.5t-5.5 99.5zM252 1183q8 113 32.5 169.5t70.5 90t122 33.5q45 0 90 -19t87 -42.5 t78.5 -42.5t65.5 -19q40 0 62.5 24.5t36.5 98.5h135q-7 -157 -63.5 -225t-159.5 -68q-44 0 -88.5 19t-86.5 42.5t-79.5 42.5t-67.5 19q-41 0 -62.5 -23t-35.5 -100h-137z" />
<glyph unicode="&#xf2;" horiz-adv-x="1251" d="M80 542q0 261 144 410.5t403 149.5q265 0 404.5 -144.5t139.5 -415.5q0 -263 -146 -412.5t-404 -149.5q-253 0 -397 150t-144 412zM328 1459v43h258l251 -288v-31h-169zM375 542q0 -181 62.5 -275.5t180.5 -94.5q259 0 259 370q0 193 -63 280t-183 87q-256 0 -256 -367z " />
<glyph unicode="&#xf3;" horiz-adv-x="1251" d="M80 542q0 261 144 410.5t403 149.5q265 0 404.5 -144.5t139.5 -415.5q0 -263 -146 -412.5t-404 -149.5q-253 0 -397 150t-144 412zM375 542q0 -181 62.5 -275.5t180.5 -94.5q259 0 259 370q0 193 -63 280t-183 87q-256 0 -256 -367zM465 1183v31l252 288h258v-43 l-340 -276h-170z" />
<glyph unicode="&#xf4;" horiz-adv-x="1251" d="M80 542q0 261 144 410.5t403 149.5q265 0 404.5 -144.5t139.5 -415.5q0 -263 -146 -412.5t-404 -149.5q-253 0 -397 150t-144 412zM256 1183v28l258 318h229l250 -318v-28h-159l-203 192h-4l-211 -192h-160zM375 542q0 -181 62.5 -275.5t180.5 -94.5q259 0 259 370 q0 193 -63 280t-183 87q-256 0 -256 -367z" />
<glyph unicode="&#xf5;" horiz-adv-x="1251" d="M80 542q0 261 144 410.5t403 149.5q265 0 404.5 -144.5t139.5 -415.5q0 -263 -146 -412.5t-404 -149.5q-253 0 -397 150t-144 412zM234 1183q8 113 32.5 169.5t70.5 90t122 33.5q45 0 90 -19t87 -42.5t78.5 -42.5t65.5 -19q40 0 62.5 24.5t36.5 98.5h135 q-7 -157 -63.5 -225t-159.5 -68q-44 0 -88.5 19t-86.5 42.5t-79.5 42.5t-67.5 19q-41 0 -62.5 -23t-35.5 -100h-137zM375 542q0 -181 62.5 -275.5t180.5 -94.5q259 0 259 370q0 193 -63 280t-183 87q-256 0 -256 -367z" />
<glyph unicode="&#xf6;" horiz-adv-x="1251" d="M80 542q0 261 144 410.5t403 149.5q265 0 404.5 -144.5t139.5 -415.5q0 -263 -146 -412.5t-404 -149.5q-253 0 -397 150t-144 412zM300 1199v219h214v-219h-214zM375 542q0 -181 62.5 -275.5t180.5 -94.5q259 0 259 370q0 193 -63 280t-183 87q-256 0 -256 -367z M734 1199v219h217v-219h-217z" />
<glyph unicode="&#xf7;" horiz-adv-x="1124" d="M49 569v224h1027v-224h-1027zM442 170v233h238v-233h-238zM442 961v233h238v-233h-238z" />
<glyph unicode="&#xf8;" horiz-adv-x="1251" d="M1 -55l197 215q-118 146 -118 382q0 261 144 410.5t403 149.5q199 0 330 -83l101 114h184l-184 -206q113 -142 113 -385q0 -263 -146 -412.5t-404 -149.5q-192 0 -324 89l-113 -124h-183zM375 542q0 -92 17 -163l407 461q-60 69 -168 69q-256 0 -256 -367zM454 244 q62 -72 164 -72q259 0 259 370q0 94 -16 162z" />
<glyph unicode="&#xf9;" horiz-adv-x="1251" d="M127 395v687h281v-607q0 -285 192 -285q102 0 164.5 87.5t62.5 224.5v580h281v-840q0 -138 8 -242h-268q-12 144 -12 215h-5q-56 -123 -142.5 -179t-205.5 -56q-172 0 -264 105.5t-92 309.5zM283 1459v43h258l251 -288v-31h-169z" />
<glyph unicode="&#xfa;" horiz-adv-x="1251" d="M127 395v687h281v-607q0 -285 192 -285q102 0 164.5 87.5t62.5 224.5v580h281v-840q0 -138 8 -242h-268q-12 144 -12 215h-5q-56 -123 -142.5 -179t-205.5 -56q-172 0 -264 105.5t-92 309.5zM463 1183v31l252 288h258v-43l-340 -276h-170z" />
<glyph unicode="&#xfb;" horiz-adv-x="1251" d="M127 395v687h281v-607q0 -285 192 -285q102 0 164.5 87.5t62.5 224.5v580h281v-840q0 -138 8 -242h-268q-12 144 -12 215h-5q-56 -123 -142.5 -179t-205.5 -56q-172 0 -264 105.5t-92 309.5zM252 1183v28l258 318h229l250 -318v-28h-159l-203 192h-4l-211 -192h-160z" />
<glyph unicode="&#xfc;" horiz-adv-x="1251" d="M127 395v687h281v-607q0 -285 192 -285q102 0 164.5 87.5t62.5 224.5v580h281v-840q0 -138 8 -242h-268q-12 144 -12 215h-5q-56 -123 -142.5 -179t-205.5 -56q-172 0 -264 105.5t-92 309.5zM298 1199v219h214v-219h-214zM732 1199v219h217v-219h-217z" />
<glyph unicode="&#xfd;" d="M16 1082h297l170 -507q40 -109 101 -334l25 95l65 235l160 511h294l-428 -1139q-86 -208 -178.5 -288t-238.5 -80q-101 0 -177 13v200q53 -8 97 -8q60 0 99.5 19t71 63t70.5 149zM413 1183v31l252 288h258v-43l-340 -276h-170z" />
<glyph unicode="&#xfe;" horiz-adv-x="1251" d="M143 -425v1909h281v-462l-4 -168h4q95 199 346 199q191 0 294 -140.5t103 -392.5q0 -257 -108.5 -398.5t-306.5 -141.5q-114 0 -198.5 49.5t-129.5 142.5h-6q6 -30 6 -182v-415h-281zM420 512q0 -163 59.5 -251.5t169.5 -88.5q225 0 225 348q0 172 -55.5 255t-167.5 83 q-113 0 -172 -91.5t-59 -254.5z" />
<glyph unicode="&#xff;" d="M16 1082h297l170 -507q40 -109 101 -334l25 95l65 235l160 511h294l-428 -1139q-86 -208 -178.5 -288t-238.5 -80q-101 0 -177 13v200q53 -8 97 -8q60 0 99.5 19t71 63t70.5 149zM257 1199v219h214v-219h-214zM691 1199v219h217v-219h-217z" />
<glyph unicode="&#x152;" horiz-adv-x="2048" d="M84 711q0 338 187.5 523.5t523.5 185.5q71 0 203 -11h929v-227h-667v-355h606v-221h-606v-379h708v-227h-976q-38 -2 -91.5 -6t-107.5 -4q-334 0 -521.5 191.5t-187.5 529.5zM381 711q0 -229 109.5 -359t302.5 -130q116 0 170 20v927q-71 19 -168 19q-200 0 -307 -124.5 t-107 -352.5z" />
<glyph unicode="&#x153;" horiz-adv-x="1933" d="M80 542q0 261 144 410.5t403 149.5q256 0 394 -153q134 153 367 153t356 -154.5t123 -452.5v-19h-694q0 -146 59 -227t166 -81q149 0 188 129l265 -23q-115 -294 -467 -294q-238 0 -369 159q-144 -159 -394 -159q-253 0 -397 150t-144 412zM375 542q0 -181 62.5 -275.5 t180.5 -94.5q259 0 259 370q0 193 -63 280t-183 87q-256 0 -256 -367zM1175 663h420q-8 131 -63 196.5t-148 65.5q-99 0 -152.5 -69t-56.5 -193z" />
<glyph unicode="&#x178;" horiz-adv-x="1366" d="M35 1409h309l338 -596l342 596h309l-502 -831v-578h-294v578zM353 1530v219h194v-219h-194zM807 1530v219h197v-219h-197z" />
<glyph unicode="&#x2c6;" horiz-adv-x="682" d="M0 1183v28l258 318h229l250 -318v-28h-159l-203 192h-4l-211 -192h-160z" />
<glyph unicode="&#x2dc;" horiz-adv-x="682" d="M-14 1183q8 113 32.5 169.5t70.5 90t122 33.5q45 0 90 -19t87 -42.5t78.5 -42.5t65.5 -19q40 0 62.5 24.5t36.5 98.5h135q-7 -157 -63.5 -225t-159.5 -68q-44 0 -88.5 19t-86.5 42.5t-79.5 42.5t-67.5 19q-41 0 -62.5 -23t-35.5 -100h-137z" />
<glyph unicode="&#x2000;" horiz-adv-x="917" />
<glyph unicode="&#x2001;" horiz-adv-x="1835" />
<glyph unicode="&#x2002;" horiz-adv-x="917" />
<glyph unicode="&#x2003;" horiz-adv-x="1835" />
<glyph unicode="&#x2004;" horiz-adv-x="611" />
<glyph unicode="&#x2005;" horiz-adv-x="458" />
<glyph unicode="&#x2006;" horiz-adv-x="305" />
<glyph unicode="&#x2007;" horiz-adv-x="305" />
<glyph unicode="&#x2008;" horiz-adv-x="229" />
<glyph unicode="&#x2009;" horiz-adv-x="367" />
<glyph unicode="&#x200a;" horiz-adv-x="101" />
<glyph unicode="&#x2010;" horiz-adv-x="682" d="M80 409v244h520v-244h-520z" />
<glyph unicode="&#x2011;" horiz-adv-x="682" d="M80 409v244h520v-244h-520z" />
<glyph unicode="&#x2012;" horiz-adv-x="682" d="M80 409v244h520v-244h-520z" />
<glyph unicode="&#x2013;" d="M62 448v203h1014v-203h-1014z" />
<glyph unicode="&#x2014;" horiz-adv-x="2048" d="M0 448v203h2048v-203h-2048z" />
<glyph unicode="&#x2018;" horiz-adv-x="569" d="M139 831v195q0 121 26 213.5t82 169.5h183q-62 -78 -96.5 -161.5t-34.5 -155.5h127v-261h-287z" />
<glyph unicode="&#x2019;" horiz-adv-x="569" d="M139 831q131 168 131 318h-127v260h287v-195q0 -121 -24.5 -210t-84.5 -173h-182z" />
<glyph unicode="&#x201a;" horiz-adv-x="569" d="M138 -317q63 76 98.5 160t35.5 157h-129v260h288v-194q0 -120 -25.5 -212t-82.5 -171h-185z" />
<glyph unicode="&#x201c;" horiz-adv-x="1024" d="M151 831v195q0 121 26 213.5t82 169.5h183q-62 -78 -96.5 -161.5t-34.5 -155.5h127v-261h-287zM579 831v195q0 124 27 215t84 168h182q-62 -78 -96.5 -161.5t-34.5 -155.5h127v-261h-289z" />
<glyph unicode="&#x201d;" horiz-adv-x="1024" d="M151 831q131 168 131 318h-127v260h287v-192q0 -125 -25 -214.5t-84 -171.5h-182zM579 831q133 168 133 318h-127v260h287v-192q0 -121 -25.5 -213.5t-83.5 -172.5h-184z" />
<glyph unicode="&#x201e;" horiz-adv-x="1024" d="M151 -317q62 78 96.5 161.5t34.5 155.5h-127v260h287v-194q0 -124 -25 -213.5t-84 -169.5h-182zM579 -317q59 71 96 156t37 161h-127v260h287v-194q0 -120 -26 -212.5t-83 -170.5h-184z" />
<glyph unicode="&#x2022;" horiz-adv-x="717" d="M65 676q0 122 85.5 207.5t205.5 85.5q122 0 208.5 -85.5t86.5 -207.5q0 -121 -87 -208t-208 -87q-119 0 -205 86.5t-86 208.5z" />
<glyph unicode="&#x2026;" horiz-adv-x="2048" d="M225 0v305h288v-305h-288zM880 0v305h286v-305h-286zM1528 0v305h288v-305h-288z" />
<glyph unicode="&#x202f;" horiz-adv-x="367" />
<glyph unicode="&#x2039;" horiz-adv-x="682" d="M92 502v71l258 367h236v-37l-254 -366l256 -361v-35h-238z" />
<glyph unicode="&#x203a;" horiz-adv-x="682" d="M93 141v35l256 361l-254 366v37h238l256 -367v-71l-256 -361h-240z" />
<glyph unicode="&#x205f;" horiz-adv-x="458" />
<glyph unicode="&#x20ac;" d="M10 510l40 149h77l-2 51l2 56h-117l40 149h87q63 515 517 515q182 0 296 -94t143 -265l-280 -16q-10 74 -52 115t-116 41q-99 0 -151.5 -71t-67.5 -225h327l-29 -149h-303l-2 -56l3 -51h340l-30 -149h-304q28 -311 230 -311q72 0 115 46t53 128l277 -16 q-31 -188 -145.5 -282.5t-303.5 -94.5q-226 0 -356 133t-159 397h-129z" />
<glyph unicode="&#x2122;" horiz-adv-x="2048" d="M125 1270v139h674v-139h-251v-502h-180v502h-243zM893 768v641h248l139 -301q22 -49 65 -160l64 160l144 301h243v-641h-165v340q0 16 8 172l-30 -75l-46 -109l-154 -328h-131l-149 328l-77 184q7 -143 7 -172v-340h-166z" />
<glyph unicode="&#x25fc;" horiz-adv-x="1080" d="M0 0v1080h1080v-1080h-1080z" />
<glyph unicode="&#xfb01;" horiz-adv-x="1251" d="M35 892v190h158v113q0 147 78 218t237 71q79 0 178 -16v-181q-41 9 -82 9q-72 0 -101.5 -28.5t-29.5 -100.5v-85h213v-190h-213v-892h-280v892h-158zM825 0v1082h281v-1082h-281zM825 1277v207h281v-207h-281z" />
<glyph unicode="&#xfb02;" horiz-adv-x="1251" d="M35 892v190h158v113q0 147 78 218t237 71q79 0 178 -16v-181q-41 9 -82 9q-72 0 -101.5 -28.5t-29.5 -100.5v-85h213v-190h-213v-892h-280v892h-158zM826 0v1484h280v-1484h-280z" />
</font>
</defs>
</svg>
